Children.of.the.Corn.Genesis.2011.DVDRip.Xvid.AC3-SiC

Download Anonymous Download Download Torrent
Added September 3 2011
Categorymovies
Seeds / Peers1 / 155 Refresh Leechers
Size1.32 GB
Hash89beddcd413055d9eb1d2c67f0f031e0a038c153
Files
1.3 GB Children.of.the.Corn.Genesis.2011.DVDRip.Xvid.AC3-SiC.avi
7.21 KB Children.of.the.Corn.Genesis.2011.DVDRip.Xvid.AC3-SiC.nfo
24.37 MB Children.of.the.Corn.Genesis.2011.DVDRip.Xvid.AC3-SiC.Sample.avi
195 Byte Downloaded from www.scenetime.com.txt
195 Byte Read This Guide First.txt
Trackers
http://tracker.thepiratebay.org/announce
udp://tracker.openbittorrent.com:80
udp://tracker.ccc.de:80
udp://tracker.publicbt.com:80
Description
.

http://www.scenetime.com - Hottest private tracker on the net. !!!

Sign up will close shortly !! Join now

Seed back for speed


...................................NFO:.................................................

















































Children.of.the.Corn.Genesis.2011.DVDRip.Xvid.AC3-SiC

Poster:
[img]http://img38.imageshack.us/img38/5756/childrenofthecorngenesi.jpg[/img]

IMDB Link:
http://www.imdb.com/title/tt1745672/

Description:
A young couple tries to free an imprisoned child with catastrophic results.

MediaInfo:
General
Complete name : Children.of.the.Corn.Genesis.2011.DVDRip.Xvid.AC3-SiC.avi
Format : AVI
Format/Info : Audio Video Interleave
File size : 1.30 GiB
Duration : 1h 20mn
Overall bit rate : 2 304 Kbps

Video
ID : 0
Format : MPEG-4 Visual
Format profile : Advanced Simple@L5
Format settings, BVOP : Yes
Format settings, QPel : No
Format settings, GMC : No warppoints
Format settings, Matrix : Default (H.263)
Muxing mode : Packed bitstream
Codec ID : XVID
Codec ID/Hint : XviD
Duration : 1h 20mn
Bit rate : 1 912 Kbps
Width : 720 pixels
Height : 304 pixels
Display aspect ratio : 2.35:1
Frame rate : 23.976 fps
Resolution : 8 bits
Colorimetry : 4:2:0
Scan type : Progressive
Bits/(Pixel*Frame) : 0.364
Stream size : 1.08 GiB (83%)
Writing library : XviD 64

Audio
ID : 1
Format : AC-3
Format/Info : Audio Coding 3
Format_Settings_ModeExtension : CM (complete main)
Codec ID : 2000
Duration : 1h 20mn
Bit rate mode : Constant
Bit rate : 384 Kbps
Channel(s) : 6 channels
Channel positions : Front: L C R, Side: L R, LFE
Sampling rate : 48.0 KHz
Stream size : 221 MiB (17%)
Alignment : Aligned on interleaves
Interleave, duration : 64 ms (1.53 video frames)
Interleave, preload duration : 960 ms
Title : 6ch English

Screenshots:
[img]http://img148.imageshack.us/img148/3001/avspavisnapshot00152820.png[/img]
[img]http://img233.imageshack.us/img233/3053/avspavisnapshot00562420.png[/img]
[img]http://img3.imageshack.us/img3/2381/childrenofthecorngenesi.png[/img]
[img]http://img855.imageshack.us/img855/2381/childrenofthecorngenesi.png[/img]
[img]http://img62.imageshack.us/img62/2381/childrenofthecorngenesi.png[/img]
[img]http://img845.imageshack.us/img845/2381/childrenofthecorngenesi.png[/img]
[img]http://img204.imageshack.us/img204/2381/childrenofthecorngenesi.png[/img]
[img]http://img714.imageshack.us/img714/2381/childrenofthecorngenesi.png[/img]
[img]http://img825.imageshack.us/img825/2381/childrenofthecorngenesi.png[/img]

Note : N/A

Source : In House

Enjoy!

Respects to CaptainHomey, Cyanide, CM8, Rx, THC, ELEKTRI4KA,
Killerhz, PA, YeFsTe, BoxSlots, MrRep and everyone in the struggle...
Locations no locations

Related

FILE SIZE SEEDS PEERS ADDED
Children of the Corn Genesis 2011 DVDRip Xvid AC3-SiC - movies Verified 1.32 GB -1 -1 4 years
Children.of.the.Corn.Genesis.2011.DVDRip.Xvid.AC3-SiC - movies 1.32 GB 48 854 4 years
Children.of.the.Corn.Genesis.2011.DVDRip.Xvid.AC3-SiC - movies 1.32 GB 3 56 4 years
malayalam final fantasy xiii acrobat poison porno system of a down delphi sim city bullet for my valentine cumshot lynda big wet most wanted horriblescans avengers csi ny books babylon 5 public reset