Children.Of.The.Corn.Genesis.2011.DvDRip.XviD.Ac3.Feel-Free

Download Anonymous Download Download Torrent
Added September 5 2011
Categorymovies
Seeds / Peers2 / 81 Refresh Leechers
Size933.3 MB
Hash485e89e0a0bff43ee9829a8c555d3a8df4ce75e7
Files
932.77 MB Children.Of.The.Corn.Genesis.2011.DvDRip.XviD.Ac3.Feel-Free.avi
Trackers
http://tracker.thepiratebay.org/announce
udp://tracker.openbittorrent.com:80
udp://tracker.ccc.de:80
udp://tracker.istole.it:80
udp://tracker.publicbt.com:80
http://pow7.com/announce
http://10.rarbg.com/announce
http://tracker.novalayer.org:6969/announce
http://9.rarbg.com:2710/announce
Description
Genre:Horror | Thriller
Language:English

http://www.imdb.com/title/tt1745672/

Source:DVD Thanks!

Format : AVI
Format/Info : Audio Video Interleave
File size : 933 MiB
Duration : 1h 20mn
Overall bit rate : 1 618 Kbps

Video
ID : 0
Format : MPEG-4 Visual
Format profile : Advanced Simple@L5
Format settings, BVOP : Yes
Format settings, QPel : No
Format settings, GMC : No warppoints
Format settings, Matrix : Default (H.263)
Codec ID : XVID
Codec ID/Hint : XviD
Duration : 1h 20mn
Bit rate : 1 161 Kbps
Width : 640 pixels
Height : 272 pixels
Display aspect ratio : 2.35:1
Frame rate : 23.976 fps
Color space : YUV
Chroma subsampling : 4:2:0
Bit depth : 8 bits
Scan type : Progressive
Bits/(Pixel*Frame) : 0.278
Stream size : 669 MiB (72%)
Writing library : XviD 1.2.1 (UTC 2008-12-04)

Audio
ID : 1
Format : AC-3
Format/Info : Audio Coding 3
Mode extension : CM (complete main)
Codec ID : 2000
Duration : 1h 20mn
Bit rate mode : Constant
Bit rate : 448 Kbps
Channel(s) : 6 channels
Channel positions : Front: L C R, Side: L R, LFE
Sampling rate : 48.0 KHz
Bit depth : 16 bits
Stream size : 258 MiB (28%)
Alignment : Aligned on interleaves
Interleave, duration : 42 ms (1.00 video frame)
Interleave, preload duration : 512 ms


Plot:
A young couple tries to free an imprisoned child with catastrophic results

Locations no locations

Last

FILE SIZE SEEDS PEERS ADDED
(一般コミック) [きゆづきさとこ] GA 芸術科アートデザインクラス第01-03巻[GA Geijutsuka Art Design Class VOL 01-03] - anime 225.07 MB 53 31 2 min
[SallySubs] Non Non Biyori Repeat [BD 1080p FLAC] - anime 15.09 GB 22 33 2 min
[SallySubs] Non Non Biyori Repeat [BD 720p AAC] - anime 4.6 GB 27 31 2 min
[SOFCJ-Raws] D.Gray-man HALLOW - 08 (BS-J 1280x720 x264 10bit AAC).mp4 - anime Verified 643.3 MB 9 9 7 min
[FFF] Jinsei - Vol.04 [BD][1080p-FLAC] - anime 2.5 GB 43 15 7 min
[FFF] Jinsei - Vol.04 [BD][720p-AAC] - anime 1.15 GB 47 13 7 min
[Anime Land] One Piece 753 (THK 720p Hi10P AAC) RAW [8AE87A7C].mp4 - anime 490.65 MB 3 1 12 min
[Titania] Overlord - Vol.03 [VOSTFR][BD 10bit 720p AAC] - anime 973.65 MB 10 5 12 min
[Titania] Overlord - Vol.02 [VOSTFR][BD 10bit 720p AAC] - anime 856.15 MB 11 3 12 min
[Titania] Overlord - Vol.01 [VOSTFR][BD 10bit 720p AAC] - anime 1.44 GB 13 4 17 min
[LevelUpSubs] Youkai Watch Episode 46 - anime 452.15 MB 0 37 17 min
Kingyo Chuuihou! (きんぎょ注意報!) TV (1991) - anime 14.43 GB 0 68 17 min
[Renascent] Jungle Kurobee (1973) 26-31 [DVD] - anime 2.26 GB 10 8 22 min
【傲娇零字幕组】[弹丸论破3/枪弹辩驳3 -The End Of-希望之峰学院-未来篇][06][720P][MP4][GB] - anime 122.29 MB 5 4 22 min
【傲嬌零字幕組】[彈丸論破3/槍彈辯駁3:The End Of 希望之峰學院-未來篇][06][720P][MP4][BIG5] - anime 122.41 MB 8 9 22 min
[MFs] Aikatsu Stars! - 019 [h264 720p AAC][Ger Sub][Hardsub][c93dcfd3] - anime 651.3 MB 3 2 27 min
Masou Gakuen HxH - 08 [ AT-X 1280x720 x264 ] (Uncensored) - anime 472.65 MB 198 90 27 min
Fudanshi Koukou Seikatsu 08 VOSTFR [720p].mp4 - anime 34.33 MB 6 3 27 min
[Leopard-Raws] Cheer Danshi!! - 07 RAW (KBS 1280x720 x264 AAC).mp4 - anime Verified 277.65 MB 110 55 32 min
Active FileRecoveryPro 15.0.7 { 32bit & 64bit }+ KEY - anime 26.98 MB 0 24 32 min
fearless die unglaubliche reise in einem verr ckten flugzeug raspi emerson sons of anarchy ita arc v daz3d teen images gundam native instruments punch box teenage fanclub pearl jam 2000 sinister 2 game of thrones haxxor cejrowski dragon ball super 054 another take me to church linux