Children.Of.The.Corn.Genesis.2011.DvDRip.XviD.Ac3.Feel-Free

Download Anonymous Download Download Torrent
Added September 5 2011
Categorymovies
Seeds / Peers2 / 81 Refresh Leechers
Size933.3 MB
Hash485e89e0a0bff43ee9829a8c555d3a8df4ce75e7
Files
932.77 MB Children.Of.The.Corn.Genesis.2011.DvDRip.XviD.Ac3.Feel-Free.avi
Trackers
http://tracker.thepiratebay.org/announce
udp://tracker.openbittorrent.com:80
udp://tracker.ccc.de:80
udp://tracker.istole.it:80
udp://tracker.publicbt.com:80
http://pow7.com/announce
http://10.rarbg.com/announce
http://tracker.novalayer.org:6969/announce
http://9.rarbg.com:2710/announce
Description
Genre:Horror | Thriller
Language:English

http://www.imdb.com/title/tt1745672/

Source:DVD Thanks!

Format : AVI
Format/Info : Audio Video Interleave
File size : 933 MiB
Duration : 1h 20mn
Overall bit rate : 1 618 Kbps

Video
ID : 0
Format : MPEG-4 Visual
Format profile : Advanced Simple@L5
Format settings, BVOP : Yes
Format settings, QPel : No
Format settings, GMC : No warppoints
Format settings, Matrix : Default (H.263)
Codec ID : XVID
Codec ID/Hint : XviD
Duration : 1h 20mn
Bit rate : 1 161 Kbps
Width : 640 pixels
Height : 272 pixels
Display aspect ratio : 2.35:1
Frame rate : 23.976 fps
Color space : YUV
Chroma subsampling : 4:2:0
Bit depth : 8 bits
Scan type : Progressive
Bits/(Pixel*Frame) : 0.278
Stream size : 669 MiB (72%)
Writing library : XviD 1.2.1 (UTC 2008-12-04)

Audio
ID : 1
Format : AC-3
Format/Info : Audio Coding 3
Mode extension : CM (complete main)
Codec ID : 2000
Duration : 1h 20mn
Bit rate mode : Constant
Bit rate : 448 Kbps
Channel(s) : 6 channels
Channel positions : Front: L C R, Side: L R, LFE
Sampling rate : 48.0 KHz
Bit depth : 16 bits
Stream size : 258 MiB (28%)
Alignment : Aligned on interleaves
Interleave, duration : 42 ms (1.00 video frame)
Interleave, preload duration : 512 ms


Plot:
A young couple tries to free an imprisoned child with catastrophic results

Locations no locations

Last

FILE SIZE SEEDS PEERS ADDED
[PuyaSubs!] Joker Game - 08 [720p][CFD95C1A].mkv - anime 320.82 MB 0 0 1 min
Aiseesoft MXF Converter 7.1.88 Portable [kshr] - software 56.64 MB 6 1 1 min
CURRENT Medical Diag v1.3 GhostRiderApk (Android) - software 174.82 MB 9 2 1 min
CCleaner v5.18.5607 PRO (May 24, 2016) + License - software 6.61 MB 10 5 6 min
CCleaner Professional / Business / Technician 5.18.5607 Final + Portable [SadeemPC] - software 29.29 MB 76 20 6 min
WeatherPro Premium 4.6 GhostRiderApk (Android) - software 8.55 MB 12 4 6 min
Lumo-GOG - games Verified 1.59 GB 21 36 6 min
Garmin City Navigator Europe 2016-05-24 free osm - software 603.82 MB 1 0 11 min
Garmin City Navigator Europe 2016-05-24 free osm - software 950.3 MB 0 2 11 min
Nuance PDF Converter Professional 8.10.6267 Multilingual + Keys [SadeemPC] - software 1.8 GB 33 57 11 min
Lumo-CODEX - games Verified 2.06 GB 4 16 11 min
Teenage.Mutant.Ninja.Turtles.Mutants.in.Manhattan-CODEX - games Verified 5.87 GB 84 1090 11 min
videohive 7920849 statistician massive info kraphics kit Fluck3r - software Verified 3.36 MB 4 3 16 min
videohive 8949951 2D text preset pack for animation composer plug in Fluck3r - software Verified 498.65 MB 1 18 16 min
videohive 9119091 animated lights kit Fluck3r - software Verified 318.65 MB 1 6 16 min
Polyptych (USA) - Defying The Metastasis (2016) [mp3@320] [Technical Death/Black Metal] - music Verified 130.57 MB 4 4 16 min
Polyptych (USA) - Panels Engraved (2012) [mp3@320] [Technical Death/Black Metal] - music Verified 95.91 MB 3 2 16 min
videohive 9450049 text messages Fluck3r - software Verified 230.57 MB 1 2 21 min
videohive 13646883 volumax 3d photo animator tool Fluck3r - software Verified 396.15 MB 1 3 21 min
videohive 13922688 photomotion professional 3d photo animator Fluck3r - software Verified 318.15 MB 0 29 21 min
grym extras game of thrones season 6 episode 5 sinister 2 mudcrutch breast milk fellatio japan milk daria hunger games gotham eric clapton high-rise fear the walking dead s02e06 720p web-dl dd5 1 h264-rarbg azhar mega pack mercyful fate discography xcom 2 x men apocalypse 2033 2010