Children.Of.The.Corn.Genesis.2011.DvDRip.XviD.Ac3.Feel-Free

Download Anonymous Download Download Torrent
Added September 5 2011
Categorymovies
Seeds / Peers2 / 81 Refresh Leechers
Size933.3 MB
Hash485e89e0a0bff43ee9829a8c555d3a8df4ce75e7
Files
932.77 MB Children.Of.The.Corn.Genesis.2011.DvDRip.XviD.Ac3.Feel-Free.avi
Trackers
http://tracker.thepiratebay.org/announce
udp://tracker.openbittorrent.com:80
udp://tracker.ccc.de:80
udp://tracker.istole.it:80
udp://tracker.publicbt.com:80
http://pow7.com/announce
http://10.rarbg.com/announce
http://tracker.novalayer.org:6969/announce
http://9.rarbg.com:2710/announce
Description
Genre:Horror | Thriller
Language:English

http://www.imdb.com/title/tt1745672/

Source:DVD Thanks!

Format : AVI
Format/Info : Audio Video Interleave
File size : 933 MiB
Duration : 1h 20mn
Overall bit rate : 1 618 Kbps

Video
ID : 0
Format : MPEG-4 Visual
Format profile : Advanced Simple@L5
Format settings, BVOP : Yes
Format settings, QPel : No
Format settings, GMC : No warppoints
Format settings, Matrix : Default (H.263)
Codec ID : XVID
Codec ID/Hint : XviD
Duration : 1h 20mn
Bit rate : 1 161 Kbps
Width : 640 pixels
Height : 272 pixels
Display aspect ratio : 2.35:1
Frame rate : 23.976 fps
Color space : YUV
Chroma subsampling : 4:2:0
Bit depth : 8 bits
Scan type : Progressive
Bits/(Pixel*Frame) : 0.278
Stream size : 669 MiB (72%)
Writing library : XviD 1.2.1 (UTC 2008-12-04)

Audio
ID : 1
Format : AC-3
Format/Info : Audio Coding 3
Mode extension : CM (complete main)
Codec ID : 2000
Duration : 1h 20mn
Bit rate mode : Constant
Bit rate : 448 Kbps
Channel(s) : 6 channels
Channel positions : Front: L C R, Side: L R, LFE
Sampling rate : 48.0 KHz
Bit depth : 16 bits
Stream size : 258 MiB (28%)
Alignment : Aligned on interleaves
Interleave, duration : 42 ms (1.00 video frame)
Interleave, preload duration : 512 ms


Plot:
A young couple tries to free an imprisoned child with catastrophic results

Locations no locations

Last

FILE SIZE SEEDS PEERS ADDED
Mount.Pleasant.S06E05.HDTV.x264-TLA[ettv] - series Verified 300.5 MB 7 5 2 min
Damned.S01E01.HDTV.x264-TLA[ettv] - series Verified 184.5 MB 336 198 2 min
Midnight.in.the.Garden.of.Good.and.Evil.1997.720p.BluRay.X264-AMIABLE[PRiME] - movies Verified 8.82 GB 1 18 2 min
The Conjuring 2 ~ दी कोंज़ूरिंग ~ [2016] 720p BR Rip x265 [DD 2.0 ~ HINDI] ® Im Loser ® [SiZE ~ 907 MB] - movies Verified 908.3 MB 1 37 7 min
Barbie: Star Light Adventure 2016 BDRip 720p Hindi DD2.0 x264-SnowDoN - movies Verified 1.37 GB 1 78 7 min
Cromwell-1970-X264-AAC-Bigtimecube[PRiME] - movies Verified 1.44 GB 5 29 7 min
Taken 3 - Extended Cut (2014) BDrip ENG-ITA x265 Aac subs - L'Ora Della Verità - movies Verified 1.87 GB 2 47 12 min
UN OMICIDIO PERFETTO A TERMINE DI LEGGE - movies Verified 4.13 GB 10 12 12 min
Cool.Hand.Luke.1967.1080p.REPACK.BluRay.x264-TiMELORDS [NORAR][PRiME] - movies Verified 8.05 GB 1 25 12 min
Convoy.1978.1080p.BluRay.X264-AMIABLE [NORAR][PRiME] - movies Verified 8.79 GB 1 20 17 min
Contempt.1963.1080p.BluRay.x264-SSF [NORAR][PRiME] - movies Verified 6.57 GB 1 11 17 min
Teenage.Mutant Ninja.Turtles.2016.1080p.BluRay.AC3.x264-ETRG - movies Verified 4.04 GB 18 51 17 min
Central.Intelligence.2016.UNRATED.1080p.BluRay.AC3.x264-ETRG - movies Verified 3.35 GB 21 86 22 min
Splintered.2010.720p.BluRay.x264-UNTOUCHABLES [NORAR][PRiME] - movies Verified 4.39 GB 4 9 22 min
Alice.Through.the.Looking.Glass.2016.BDRip.x264-VETO[PRiME] - movies Verified 1.3 GB 23 20 22 min
Alice.Through.the.Looking.Glass.2016.BDRip.x264-VETO - movies Verified 1.3 GB 8 21 27 min
The Makeover 2013 Hallmark 720p HDTV X264 Solar - movies Verified 1.01 GB 24 24 27 min
Swiss Army Man 2016 HEVC D3FiL3R iso.[PRiME] - movies Verified 1.88 GB 1 20 27 min
Mike and Dave Need Wedding Dates (2016) (1080p Bluray x265 HEVC 10bit AAC 7.1 Tigole) [UTR] - movies Verified 3.1 GB 8 36 32 min
Misconduct 2016 HEVC D3FiL3R iso.[PRiME] - movies Verified 2.04 GB 1 30 32 min
fearless die unglaubliche reise in einem verr ckten flugzeug raspi emerson sons of anarchy ita arc v daz3d teen images gundam native instruments punch box teenage fanclub pearl jam 2000 sinister 2 game of thrones haxxor cejrowski dragon ball super 054 another take me to church linux