Children.Of.The.Corn.Genesis.2011.DvDRip.XviD.Ac3.Feel-Free

Download Anonymous Download Download Torrent
Added September 5 2011
Categorymovies
Seeds / Peers2 / 81 Refresh Leechers
Size933.3 MB
Hash485e89e0a0bff43ee9829a8c555d3a8df4ce75e7
Files
932.77 MB Children.Of.The.Corn.Genesis.2011.DvDRip.XviD.Ac3.Feel-Free.avi
Trackers
http://tracker.thepiratebay.org/announce
udp://tracker.openbittorrent.com:80
udp://tracker.ccc.de:80
udp://tracker.istole.it:80
udp://tracker.publicbt.com:80
http://pow7.com/announce
http://10.rarbg.com/announce
http://tracker.novalayer.org:6969/announce
http://9.rarbg.com:2710/announce
Description
Genre:Horror | Thriller
Language:English

http://www.imdb.com/title/tt1745672/

Source:DVD Thanks!

Format : AVI
Format/Info : Audio Video Interleave
File size : 933 MiB
Duration : 1h 20mn
Overall bit rate : 1 618 Kbps

Video
ID : 0
Format : MPEG-4 Visual
Format profile : Advanced Simple@L5
Format settings, BVOP : Yes
Format settings, QPel : No
Format settings, GMC : No warppoints
Format settings, Matrix : Default (H.263)
Codec ID : XVID
Codec ID/Hint : XviD
Duration : 1h 20mn
Bit rate : 1 161 Kbps
Width : 640 pixels
Height : 272 pixels
Display aspect ratio : 2.35:1
Frame rate : 23.976 fps
Color space : YUV
Chroma subsampling : 4:2:0
Bit depth : 8 bits
Scan type : Progressive
Bits/(Pixel*Frame) : 0.278
Stream size : 669 MiB (72%)
Writing library : XviD 1.2.1 (UTC 2008-12-04)

Audio
ID : 1
Format : AC-3
Format/Info : Audio Coding 3
Mode extension : CM (complete main)
Codec ID : 2000
Duration : 1h 20mn
Bit rate mode : Constant
Bit rate : 448 Kbps
Channel(s) : 6 channels
Channel positions : Front: L C R, Side: L R, LFE
Sampling rate : 48.0 KHz
Bit depth : 16 bits
Stream size : 258 MiB (28%)
Alignment : Aligned on interleaves
Interleave, duration : 42 ms (1.00 video frame)
Interleave, preload duration : 512 ms


Plot:
A young couple tries to free an imprisoned child with catastrophic results

Locations no locations

Last

FILE SIZE SEEDS PEERS ADDED
50 Sexy and Hot Celebrity Girls Super Wallpapers Set 10 - misc 30.2 MB 0 0 3 days
25 Sexy Hot Beautiful Girls Best Wallpaper Set 11 - misc 25.27 MB 0 0 3 days
25 Sexy Alia Bhatt Hot Pictures Set 2 - misc 9.33 MB 0 0 3 days
Amazing Animals Wallpapers {Pack-24} - misc 26.08 MB 0 0 3 days
Amazing Aircraft Wallpapers {Pack-4} - misc 15.58 MB 0 0 3 days
Codeschool - Staying Sharp with Angular.js - misc 815.3 MB 0 0 3 days
DigitalTutors - Designing a Single Page Product Website in Photoshop and HTML - misc 1.72 GB 0 0 3 days
Lynda.com - Sylvia Massy. Unconventional Recording - misc 806.3 MB 0 0 3 days
PornMegaLoad 16 07 21 Maci From Religious School To This 1080p MP4-KTR - misc 806.15 MB 0 0 3 days
[GangbangCreampie]Alena Croft - Gangbang Creampie G68(NEW***22.07.2016) - misc 495.32 MB 0 0 3 days
WowGirls 16 07 22 Sapphira Me And My Bed 1080p MP4-KTR - misc 1.02 GB 0 0 3 days
Zoliboy 16 07 22 Chary Kiss Fuckability 1080p MP4-KTR - misc 1023.15 MB 0 0 3 days
PlayboyPlus 16 07 22 Brittany Kelly Poolside Pleasure 1080p MP4-KTR - misc 321.79 MB 0 0 3 days
PornMegaLoad 16 07 21 Sally Dangelo Paint Sallys Tongue 1080p MP4-KTR - misc 1.27 GB 0 0 3 days
Squirt-A-Holic - misc 2.19 GB 0 0 3 days
Squirt-A-Holic - misc 2.18 GB 0 0 3 days
Love In Belvedere (2016) - misc 1.06 GB 0 0 3 days
GangbangCreampie 16 07 18 G67 Hailey BTS 1080p MP4-KTR - misc 488.82 MB 0 0 3 days
[NuruMassage./FantasyMassage]Harley Jade, Chad Alva - PlayDate(NEW***22.07.2016) - misc 412.32 MB 0 0 3 days
Private Specials 141: Hot Cooking **Split Scenes** - misc 1.09 GB 0 0 3 days
ciliary ganglion styles css images details dr najeeb central intelligence back to sleep empire chronological avengers pack mezzoforte rewrite godspace rewrite daily selected fiction books call of duty apk empire apk fontfont whatsapp great grand masti unreal fetenhits