Children.Of.The.Corn.Genesis.2011.DvDRip.XviD.Ac3.Feel-Free

Download Anonymous Download Download Torrent
Added September 5 2011
Categorymovies
Seeds / Peers2 / 81 Refresh Leechers
Size933.3 MB
Hash485e89e0a0bff43ee9829a8c555d3a8df4ce75e7
Files
932.77 MB Children.Of.The.Corn.Genesis.2011.DvDRip.XviD.Ac3.Feel-Free.avi
Trackers
http://tracker.thepiratebay.org/announce
udp://tracker.openbittorrent.com:80
udp://tracker.ccc.de:80
udp://tracker.istole.it:80
udp://tracker.publicbt.com:80
http://pow7.com/announce
http://10.rarbg.com/announce
http://tracker.novalayer.org:6969/announce
http://9.rarbg.com:2710/announce
Description
Genre:Horror | Thriller
Language:English

http://www.imdb.com/title/tt1745672/

Source:DVD Thanks!

Format : AVI
Format/Info : Audio Video Interleave
File size : 933 MiB
Duration : 1h 20mn
Overall bit rate : 1 618 Kbps

Video
ID : 0
Format : MPEG-4 Visual
Format profile : Advanced Simple@L5
Format settings, BVOP : Yes
Format settings, QPel : No
Format settings, GMC : No warppoints
Format settings, Matrix : Default (H.263)
Codec ID : XVID
Codec ID/Hint : XviD
Duration : 1h 20mn
Bit rate : 1 161 Kbps
Width : 640 pixels
Height : 272 pixels
Display aspect ratio : 2.35:1
Frame rate : 23.976 fps
Color space : YUV
Chroma subsampling : 4:2:0
Bit depth : 8 bits
Scan type : Progressive
Bits/(Pixel*Frame) : 0.278
Stream size : 669 MiB (72%)
Writing library : XviD 1.2.1 (UTC 2008-12-04)

Audio
ID : 1
Format : AC-3
Format/Info : Audio Coding 3
Mode extension : CM (complete main)
Codec ID : 2000
Duration : 1h 20mn
Bit rate mode : Constant
Bit rate : 448 Kbps
Channel(s) : 6 channels
Channel positions : Front: L C R, Side: L R, LFE
Sampling rate : 48.0 KHz
Bit depth : 16 bits
Stream size : 258 MiB (28%)
Alignment : Aligned on interleaves
Interleave, duration : 42 ms (1.00 video frame)
Interleave, preload duration : 512 ms


Plot:
A young couple tries to free an imprisoned child with catastrophic results

Locations no locations

Last

FILE SIZE SEEDS PEERS ADDED
Annabels Nightclub A String of Naked Lightbulbs 720p WEBRip h264-spamTV[rartv] - series Verified 999.07 MB 4 1 2 min
Our World Libya The Hunt For The Golden Gun 720p WEBRip h264-spamTV[rartv] - series Verified 394.57 MB 5 1 2 min
UFO_News_06Feb2016 MUFON+UFO Planet sightings+MrEnigma+SecureTeam Reports+heaps more - series Verified 1.21 GB 2 4 12 min
Grimm S05E08 1080p WEB-DL 6CH HEVC x265-RMTeam[1080P][HEVC] - series Verified 549.57 MB 8 20 12 min
Ghost Adventures S12E02 Secret Scientology Lab 720p HDTV x264-ERROR - series 685.3 MB 1 8 12 min
The Carol Burnett Show - Exclusive Bonus Features (2 DVD Set) [Time Life Entertainment 31233-X] - series 10.43 GB 1 2 17 min
Its Always Sunny in Philadelphia S11E05 720p WEB-DL HEVC x265-RMTeam [720P][HEVC] - series Verified 142.52 MB 1 8 22 min
iZombie S02E11 WEB-DL x264-RARBG - series Verified 261.25 MB 17 16 22 min
King of the Hill Season 13 720p WEB-DL - series 12.83 GB 1 9 27 min
Power Rangers Dino Super Charge S23E02 Forgive and Forget 720p WEBRip AAC2 0 H 264 mkv - series Verified 587.32 MB 5 30 32 min
King of the Hill Season 12 720p WEB-DL DD5.1 - series 10.76 GB 1 8 32 min
What to Buy and Why s01e05 EN SUB MPEG4 x264 WEBRIP [MPup] - series Verified 494.82 MB 1 0 37 min
4th Man Out 2016 English Movies HDRip XviD AAC with Sample ~ ☻rDX☻ - movies 705.3 MB 0 8 37 min
Beyonce - Formation (Dirty) 1080p [P-DawG] [CPUL].mp4 - movies Verified 111.29 MB 2 12 42 min
The Intern (2015) - 720p - movies 986.3 MB 1 2 42 min
Ghayal Once Again (2016) 720p DVDScr x264 Hindi AC3 5.1 - MRDhila - movies Verified 963.3 MB 1 0 47 min
The Comb 1991 1080p BluRay HEVC x265-RMTeam [1080P][HEVC] - movies Verified 421.32 MB 0 1 52 min
Blue Mountain State The Rise Of Thadland 2016 FRENCH WEBRIP x264 Hadopix mkv - movies 548.3 MB 1 0 52 min
Mercury Rising (1998) - [BD-Rip - 720p - x264 - Multi Audio (Tamil + Hindi + English) - Mp3 - 750MB - E-Subs][LRanger] - movies Verified 714.3 MB 1 0 52 min
Ghayl Once Again 2016 WF4u.com @ Nagy - movies 699.3 MB 1 3 57 min
days blonde xxx vikings john wick hero uk top 40 endless legend videos complete 2014 jackie brown ita jackie brown papa roach from mexico dj antoine ma cherie isoplex vostfr tumko na bhool paayenge 2002 tagalog label pack jeff kinney hard luck